Iron Man (2008) 1080p BluRay x264-1920

http://uploaded.net/file/zzj7uqw8/Iron.Man.2008.1080p.BluRay.x264-1920.part08.rar
http://uploaded.net/file/bjada8yv/Iron.Man.2008.1080p.BluRay.x264-1920.part07.rar
http://uploaded.net/file/pfx8yxub/Iron.Man.2008.1080p.BluRay.x264-1920.part06.rar
http://uploaded.net/file/o3yr5r3a/Iron.Man.2008.1080p.BluRay.x264-1920.part05.rar
http://uploaded.net/file/e64wssto/Iron.Man.2008.1080p.BluRay.x264-1920.part04.rar
http://uploaded.net/file/adw22y3v/Iron.Man.2008.1080p.BluRay.x264-1920.part03.rar
http://uploaded.net/file/1zvq12ip/Iron.Man.2008.1080p.BluRay.x264-1920.part02.rar
http://uploaded.net/file/ebxa28uh/Iron.Man.2008.1080p.BluRay.x264-1920.part01.rar


Code:


http://rapidgator.net/file/f5145363b3a42acaaba1c0b1b2a07301/Iron.Man.2008.1080p.BluRay.x264-1920.part09.rar.html
http://rapidgator.net/file/6449f13d9c494069edb3af6a1bfcdd59/Iron.Man.2008.1080p.BluRay.x264-1920.part04.rar.html
http://rapidgator.net/file/f9cb46eea30e8d679dc5cc0684b2e8a4/Iron.Man.2008.1080p.BluRay.x264-1920.part01.rar.html
http://rapidgator.net/file/23b6ca21f9f80388892ac5c999aeb1fd/Iron.Man.2008.1080p.BluRay.x264-1920.part06.rar.html
http://rapidgator.net/file/b8f6f80ec8fb989e152beb1854e3eca7/Iron.Man.2008.1080p.BluRay.x264-1920.part03.rar.html
http://rapidgator.net/file/b5cfd133982177bd9b42f4a618b89410/Iron.Man.2008.1080p.BluRay.x264-1920.part02.rar.html
http://rapidgator.net/file/e53150219e8af3c08f21e8800de85401/Iron.Man.2008.1080p.BluRay.x264-1920.part08.rar.html
http://rapidgator.net/file/3ae6f69a0c2d39c34d4479fd33f15db3/Iron.Man.2008.1080p.BluRay.x264-1920.part07.rar.html
http://rapidgator.net/file/f71d25eaca4ef5de970265e5296e00ce/Iron.Man.2008.1080p.BluRay.x264-1920.part05.rar.html


Code:


http://uploadrocket.net/opzlq2li4grh/Iron.Man.2008.1080p.BluRay.x264-1920.part01.rar.html
http://uploadrocket.net/8iz2drnybtm9/Iron.Man.2008.1080p.BluRay.x264-1920.part02.rar.html
http://uploadrocket.net/4596c2evoqvk/Iron.Man.2008.1080p.BluRay.x264-1920.part03.rar.html
http://uploadrocket.net/valqigxnmbk4/Iron.Man.2008.1080p.BluRay.x264-1920.part04.rar.html
http://uploadrocket.net/cp24jqrytrqi/Iron.Man.2008.1080p.BluRay.x264-1920.part05.rar.html
http://uploadrocket.net/svjxno6wtxjt/Iron.Man.2008.1080p.BluRay.x264-1920.part06.rar.html
http://uploadrocket.net/tuhznpw8olzm/Iron.Man.2008.1080p.BluRay.x264-1920.part07.rar.html
http://uploadrocket.net/ltjpxi0slxiq/Iron.Man.2008.1080p.BluRay.x264-1920.part08.rar.html
http://uploadrocket.net/l2apiao6qyfc/Iron.Man.2008.1080p.BluRay.x264-1920.part09.rar.html


Code:


http://www.imdb.com/title/tt0371746/

Code:


Video
ID                                      : 1
Format                                  : AVC
Format/Info                              : Advanced Video Codec
Format profile                          : [email protected]
Format settings, CABAC                  : Yes
Format settings, ReFrames                : 5 frames
Codec ID                                : V_MPEG4/ISO/AVC
Duration                                : 2h 6mn
Bit rate                                : 8 385 Kbps
Width                                    : 1 920 pixels
Height                                  : 800 pixels
Display aspect ratio                    : 2.40:1
Frame rate mode                          : Constant
Frame rate                              : 23.976 fps
Color space                              : YUV
Chroma subsampling                      : 4:2:0
Bit depth                                : 8 bits
Scan type                                : Progressive
Bits/(Pixel*Frame)                      : 0.228
Stream size                              : 7.22 GiB (91%)
Writing library                          : x264 core 61 r957 7ce0f2c
Encoding settings                        : cabac=1 / ref=5 / deblock=1:0:0 / analyse=0x3:0x133 / me=umh / subme=6 / brdo=1 / mixed_ref=1 / me_range=16 / chroma_me=1 / trellis=1 / 8x8dct=1 / cqm=0 / deadzone=21,11 / chroma_qp_offset=0 / threads=6 / nr=0 / decimate=1 / mbaff=0 / bframes=3 / b_pyramid=1 / b_adapt=1 / b_bias=0 / direct=1 / wpredb=1 / bime=1 / keyint=250 / keyint_min=25 / scenecut=40(pre) / rc=2pass / bitrate=8385 / ratetol=1.0 / qcomp=1.00 / qpmin=10 / qpmax=51 / qpstep=4 / cplxblur=20.0 / qblur=0.5 / ip_ratio=1.40 / pb_ratio=1.30 / aq=2:1.00
Language                                : English
Default                                  : Yes
Forced                                  : No

Audio
ID                                      : 2
Format                                  : AC-3
Format/Info                              : Audio Coding 3
Mode extension                          : CM (complete main)
Format settings, Endianness              : Big
Codec ID                                : A_AC3
Duration                                : 2h 6mn
Bit rate mode                            : Constant
Bit rate                                : 640 Kbps
Channel(s)                              : 6 channels
Channel positions                        : Front: L C R, Side: L R, LFE
Sampling rate                            : 48.0 KHz
Frame rate                              : 31.250 fps (1536 spf)
Compression mode                        : Lossy
Stream size                              : 577 MiB (7%)
Title                                    : AC3 640 Kbps
Language                                : English
Default                                  : Yes
Forced                                  : No

Text #1
ID                                      : 3
Format                                  : UTF-8
Codec ID                                : S_TEXT/UTF8
Codec ID/Info                            : UTF-8 Plain Text
Language                                : English
Default                                  : No
Forced                                  : No

Text #2
ID                                      : 4
Format                                  : UTF-8
Codec ID                                : S_TEXT/UTF8
Codec ID/Info                            : UTF-8 Plain Text
Language                                : English
Default                                  : Yes
Forced                                  : No



Download iron.man.2008.1080p.bluray.x264.1920.zip
Direct Link


Download


Download iron.man.2008.1080p.bluray.x264.1920.zip
Mediafire


Download


Download iron.man.2008.1080p.bluray.x264.1920.zip
Tusfiles


Download


Download iron.man.2008.1080p.bluray.x264.1920.zip
Extabit


Download


Download iron.man.2008.1080p.bluray.x264.1920.zip
FILESERVE


Download

Both comments and pings are currently closed.

Comments are closed.